夺宝奇兵1国语音轨

更新日期: 2022年01月19日 下载次数: 1201
电影名称:夺宝奇兵(Raiders of the Lost Ark)

电影年代:1981

电影长度:115分钟

拍摄国家:美国英国

音轨语言:汉语普通话

音轨格式:mka

音道数量:5.1

文件大小:1220MB

音轨简介

  Format : Matroska Format version : Version 4 / Version 2 File size : 1.22 GiB Duration : 1 h 55 min Overall bit rate : 1 511 kb/s Track name : Indiana.Jones.and.the.Raiders.of.the.Lost.Ark.1981.2160p.BluRay.REMUX.HEVC.DTS-HD.MA.TrueHD.7.1.Atmos-FGT Encoded date : UTC 2021-06-06 15:49:35 Writing application : mkvmerge v30.1.0 (’Forever And More’) 64-bit Writing library : libebml v1.3.6 + libmatroska v1.4.9 Cover : Yes Attachments : cover_land.jpg / small_cover.jpg / small_cover_land.jpg / cover.jpg Audio #1 ID : 1 Format : DTS Format/Info : Digital Theater Systems Codec ID : A_DTS Duration : 1 h 55 min Bit rate mode : Constant Bit rate : 1 510 kb/s Channel(s) : 6 channels Channel positions : Front: L C R, Side: L R, LFE Sampling rate : 48.0 kHz Frame rate : 93.750 FPS (512 SPF) Bit depth : 24 bits Compression mode : Lossy Stream size : 1.22 GiB (100%) Title : 公映国配 Language : Chinese Default : Yes Forced : No Text #2 ID : 2 Format : ASS Codec ID : S_TEXT/ASS Codec ID/Info : Advanced Sub Station Alpha Duration : 1 h 49 min Bit rate : 161 b/s Count of elements : 1027 Compression mode : Lossless Stream size : 130 KiB (0%) Title : 中英美化字幕 Language : Chinese Default : Yes Forced : No

夺宝奇兵1国语音轨文件百度网盘下载

  https://pan.baidu.com/s/1OtGFaAqIaFOXJEgcTam-Qw 百度网盘提取码:2160

音轨文件说明

帮助中心